extratorrent - A Fan Made Alternative Login   |   Register
Important Information
Registrations are open now
-------------------------------------

Please click here to register with Extratorrent2 to recieve latest updates, add bookmarks and to post comments.

Friends
Friends

1) Filebebo
-------------------------------------
2) MoviesDig
-------------------------------------
3) Torrentz2.cc
-------------------------------------
4) Torrents.me

Extratorrent2 > Categories > Movies > Hebbuli (2018) Hindi Dubbed 1080p WEBHD AAC [MRbuZ] torrent


Browse Movies torrents

Hebbuli (2018) Hindi Dubbed 1080p WEBHD AAC [MRbuZ] torrent


Download torrent: Download Hebbuli (2018) Hindi Dubbed 1080p WEBHD AAC [MRbuZ] torrent Magnet link Bookmark Torrent: Hebbuli (2018) Hindi Dubbed 1080p WEBHD AAC [MRbuZ]   Hebbuli (2018) Hindi Dubbed 1080p WEBHD AAC [MRbuZ] torrent
Info hash: EBCD1DA0EB584FA8EC83A624FBA00C961BCFAA36
Category: Categories > Movies
Trackers:
View all torrent trackers >
Health:
 seeds: 21 ,  leechers: 15 |  Update >
Torrent language: Hindi Hindi
Total Size: 2.4 GB
Files List:
1    View torrent files >
Uploader:
ictv
Torrent added: May 12, 2018, 3:32 pm
Tags: "Action", "Crime", "Drama", "Thriller"
IMDB: http://www.imdb.com/title/tt3962184
Users rating: ---, not rated. please login to rate.

Download Hebbuli (2018) Hindi Dubbed 1080p WEBHD AAC [MRbuZ] torrent



Torrent Description

Visit www.mrbuz.com

Hebbuli (2018) Hindi Dubbed 1080p WEBHD AAC [MRbuZ]

http://www.imdb.com/title/tt3962184/



General
Unique ID : 87051660908141117996478267264294368975 (0x417D8A40665A9F96A531AC348926B6CF)
Complete name : www.MRbuZ.com-Hebbuli (2018) Hindi Dubbed 1080p WEBHD AAC [MRbuZ].mkv
Format : Matroska
Format version : Version 4 / Version 2
File size : 2.39 GiB
Duration : 1 h 56 min
Overall bit rate : 2 951 kb/s
Movie name : WWW.MRbuZ.com
Encoded date : UTC 2018-05-11 18:06:48
Writing application : mkvmerge v22.0.0 ('At The End Of The World') 64-bit
Writing library : libebml v1.3.5 + libmatroska v1.4.8 / Lavf55.33.100

Video
ID : 1
Format : AVC
Format/Info : Advanced Video Codec
Format profile :
Format settings, CABAC : Yes
Format settings, ReFrames : 2 frames
Codec ID : V_MPEG4/ISO/AVC
Duration : 1 h 56 min
Bit rate : 2 823 kb/s
Width : 1 920 pixels
Height : 1 080 pixels
Display aspect ratio : 16:9
Frame rate mode : Constant
Frame rate : 25.000 FPS
Color space : YUV
Chroma subsampling : 4:2:0
Bit depth : 8 bits
Scan type : Progressive
Bits/(Pixel*Frame) : 0.054
Stream size : 2.29 GiB (96%)
Title : WWW.MRbuZ.com
Default : Yes
Forced : No
Encoded date : UTC 2018-05-01 10:46:56
Color range : Limited
Color primaries : BT.709
Transfer characteristics : BT.709
Matrix coefficients : BT.709
HANDLER_NAME : VideoHandler

Audio
ID : 2
Format : AAC
Format/Info : Advanced Audio Codec
Format profile : LC
Codec ID : A_AAC
Duration : 1 h 56 min
Bit rate : 126 kb/s
Channel(s) : 2 channels
Channel positions : Front: L R
Sampling rate : 44.1 kHz
Frame rate : 43.066 FPS (1024 spf)
Compression mode : Lossy
Stream size : 104 MiB (4%)
Title : WWW.MRbuZ.com
Language : Hindi
Default : Yes
Forced : No
Encoded date : UTC 2018-05-01 10:48:54
HANDLER_NAME : SoundHandler

Text
ID : 3
Format : UTF-8
Codec ID : S_TEXT/UTF8
Codec ID/Info : UTF-8 Plain Text
Duration : 1 h 55 min
Bit rate : 56 b/s
Count of elements : 1411
Stream size : 47.8 KiB (0%)
Title : WWW.MRbuZ.com
Language : English
Default : No
Forced : No
HANDLER : en










Download Hebbuli (2018) Hindi Dubbed 1080p WEBHD AAC [MRbuZ] torrent


Related Torrents


Comments   (please login to add your comment!)

guts and glory     windows 10     simona     in my ass     sophie dee and magdalene st michaels     alessa savage     web dl     facialized     nurse     adobe collection     gia dimarco bangbros     telugu     264     the true     21st century     ilustre     perfect maid     doctor strange     brrip 2017 ac3     new     audiotool     netsupport manager     naughtyamericavr ava     tie me up raylin ann     


Home - Browse Torrents

Made with love by an Extratorrent Fan!